randomtestreggaeband
» » DK3 - Neutrons
DK3 - Neutrons album mp3

DK3 - Neutrons album mp3

  • Performer: DK3
  • Genre: Jazz / Rock
  • Title: Neutrons
  • Released: 1998
  • Style: Jazz-Rock, Experimental
  • Country: US
  • MP3 version size: 1424 mb
  • FLAC version size: 1774 mb
  • Other: TTA MOD MP1 MMF DTS TTA MP1
  • Rating: 4.1
  • Votes: 502

Description

DK3: Neutrons by Ken Vandermark, released 12 August 1997 1. Downriver 2. Landshark pt. 2 3. Monte's Casino 4. Heavy Water 5. The Traveling Salesman 6. Neutrons 7. Issa 8. Lullaby Out of print.

The Neutrons-UK LP Tales From The Blue Cocoons (1975, Prog Rock) 1 - Come Into My Cave 2 - No More Straights 3 - Northern Midnight 4 - Live Your Lie 5 - L. .

Label: Quarterstick Records ‎– QS48CD. Recorded By, Mixed By – Jeff Lane (2). Reeds – Ken Vandermark. Written-By – DK3 (tracks: 1 to 5, 8). Notes. Recorded and mixed at Chicago Recording Company 3/97.

5. The Traveling Salesman. The Denison Kimball Trio - 1997 - Neutrons/ - . 0. The Denison Kimball Trio - 1997 - Neutrons/5. The Denison Kimball Trio - 1997 - Neutrons/Art/ - . The Denison Kimball Trio - 1997 - 47-1251865206. The Denison Kimball Trio - 1997 - 47-1251865381. The Denison Kimball Trio - 1997 - 47-1251865242. The Denison Kimball Trio - 1997 - 47-1251865224.

Dk3 (Denison/Kimball Trio). Dk3 (Denison/Kimball Trio) - Heavy Water 06:32. Dk3 (Denison/Kimball Trio) - The Traveling Salesman 02:59. Dk3 (Denison/Kimball Trio) - Neutrons 05:37. Dk3 (Denison/Kimball Trio) - Issa 03:52. Dk3 (Denison/Kimball Trio) - Lullaby 03:38. I Love Rock 'n' Roll - Various Artists.

LP (12" album, 33 rpm). Ken Vandermark The Denison/Kimball Trio Format: Vinyl. Exclusive discount for Prime members. Sample this album Artist (Sample).

Talk:Neutrons (album). Rated Stub-class, Low-importance).

DK3" INDEX 01 00:00:00 FILE "Neutrons. wav" WAVE TRACK 06 AUDIO TITLE "Neutrons" PERFORMER "DK3" INDEX 01 00:00:00 FILE "Issa. wav" WAVE TRACK 07 AUDIO TITLE "Issa" PERFORMER "DK3" INDEX 01 00:00:00 FILE "Lullaby. wav" WAVE TRACK 08 AUDIO TITLE "Lullaby" PERFORMER "DK3" INDEX 01 00:00:00. Лог проверки качества. Their second album, Soul Machine, followed a year later. Following the breakup of the trio in 1999, Denison toured as a guitarist for Hank Williams III. He formed a new band, Tomahawk, in 2001, with ex-Helmet drummer John Stanier, Melvins bassist Kevin Rutmanis, and Mr. Bungle vocalist Mike Patton.

Artist: Dk3 (Denison/Kimball Trio). Dk3 (Denison/Kimball Trio): best 2 tracks. Dk3 (Denison/Kimball Trio) - The Traveling Salesman Neutrons, 1997 02:59. Dk3 (Denison/Kimball Trio) - Issa Neutrons, 1997 03:52. Artist: Dk3 (Denison/Kimball Trio).

Tracklist

A1 Downriver 4:15
A2 Landshark Pt. 2 2:38
A3 Monte's Casino 4:17
A4 Heavy Water 6:32
B1 The Travelling Salesman 2:59
B2 Neutrons 5:37
B3 Issa 3:52
B4 Lullaby 3:38

Credits

  • Artwork – Derek Besant
  • Drums, Other [Aquaharp] – James Kimball*
  • Guitar, Bass – Duane Denison
  • Layout – David Lambeth
  • Recorded By, Mixed By – Jeff Lane
  • Recorder – Tom Bickley (tracks: B3)
  • Reeds – Ken Vandermark

Notes

Recorded and mixed at Chicago Recording Company 3/97.

Other versions

Category Artist Title (Format) Label Category Country Year
QS48CD DK3* Neutrons ‎(CD, Album) Quarterstick Records QS48CD US 1998
none DK3* Neutrons ‎(8xFile, FLAC, Album) Catalytic Sound none US Unknown

Video