randomtestreggaeband
» » Karel Gott - Do Re Mi La / V Září
Karel Gott - Do Re Mi La / V Září album mp3

Karel Gott - Do Re Mi La / V Září album mp3

  • Performer: Karel Gott
  • Genre: Pop
  • Title: Do Re Mi La / V Září
  • Released: 1977
  • Style: Vocal
  • Country: Czechoslovakia
  • MP3 version size: 1925 mb
  • FLAC version size: 1141 mb
  • Other: MOD AC3 DMF MP1 VOC MP4 DXD
  • Rating: 4.1
  • Votes: 490

Description

Get the Tempo of the tracks from Karel Gott & Darinka Rolincová (1987) by Karel Gott. This album has an average beat per minute of 102 BPM (slowest/fastest tempos: 66/152 BPM). See its BPM profile at the bottom of the page.

2013 В конце 2013 года впервые после 2000 года приехал в Россию и выступил для Новогодней ночи на Первом канале.

2015 27 октября 2015 года был госпитализирован и прооперирован в Праге с подозрением на онкологическое заболевание лимфатических узлов.

Discover all of this album's music connections, watch videos, listen to music, discuss and download.

One of the greatest song by Karel Gott. You're viewing YouTube in Russian. You can change this preference below.

Выгодные цены без комиссий! Бронируйте отели онлайн на Booking. com · Бесплатная отмена брони · Надежное бронирование · Широкий выбор

HIDDEN ERROR: Usage of "signature" is not recognizedHIDDEN ERROR: Usage of "voice department" is not recognized. Karel Gott (born July 14, 1939 in Plzeň) is a Czech Schlager singer, and an amateur painter. Do-Re-Mi is a 1961 jazz album by June Christy and Bob Cooper, consisting of selections from the Broadway musical Do Re Mi, written by Jule Styne, Betty Comden and Adolf Green. Half the tunes are sung by Christy, backed by Cooper and an instrumental group, the other half played by Cooper leading an instrumental group with mostly different personnel.

Album: Ladislav Štaidl: Diamantová Deska, 1993. Z 1. ílu pořadu "Zpívá Karel Gott" v divadle ve Slaném (1978) Hudba: Ladislav Štaidl Text: Michael Prostějovský Ladislav Štaidl se svým orchestrem.

Karel Gott; 14 июля 1939, Пльзень) - один из самых знаменитых чешских певцов, иногда называемый королём чешской поп-музыки или чешским соловьём. EXE Additional command line options : -8 -V -T "TITLE %title%" -T "ARTIST %artist%" -T "ALBUMARTIST %albumartist%" -T "ALBUM %. je" PERFORMER "Karel Gott" REM COMPOSER "" INDEX 01 56:30:43 TRACK 21 AUDIO TITLE "Do re mi la" PERFORMER "Karel Gott" REM COMPOSER "" INDEX 01 60:21:25 TRACK 22 AUDIO TITLE "Stokrat chvalim cas" PERFORMER "Karel Gott" REM COMPOSER "" INDEX 01 63:38:58. Отчет auCDtect Task manager

карел готт качать онлайн, как и Karel Gott - Я открываю двери, Karel Gott - Stokr t chv l m as, Karel Gott - Ноченька, Karel Gott - Just a Little Smile, Karel Gott - От зари до зари. Zvonky t st feat Darina Rolincov. Ma prvni laska se dnes vdava (You're Such A Good Looking Woman). Наша группа VK Загрузить мой плейлист Вк.

Tracklist Hide Credits

A Do Re Mi La
Lyrics By – M. Prostějovský*Music By – L. Štaidl*
AA V Září (Stop Me)
Chorus – Sbor V. Kozla*Lyrics By [Czech] – V. Babula*Written-By – Findon*, Charles*, Myers*

Companies, etc.

  • Pressed By – Gramofonové Závody – H 1201
  • Pressed By – Gramofonové Závody – H 1202

Credits

  • Cover, Photography By – Pavel Jasanský
  • Orchestra – L. Štaidl Se Svým Orchestrem*

Notes

[Retailed in a preprinted picture sleeve with overprinted basic credits in black letterpress.]

℗ 1977
Made in Czechoslovakia

Barcode and Other Identifiers

  • Matrix / Runout (Label A): H 1201
  • Matrix / Runout (Label AA): H 1202
  • Matrix / Runout (Runout stamp A): H 1201/A A
  • Matrix / Runout (Runout stamp AA): H 1202/A II D
  • Rights Society: OSA
  • Price Code (Retail price, labels): Kčs 12,-
  • Price Code (Retail price, sleeve): Kčs 12,—
  • Other (Manufacturing date code): 77 2

Other versions

Category Artist Title (Format) Label Category Country Year
1 43 2157 Karel Gott Do Re Mi La / V Září ‎(7", RP) Supraphon 1 43 2157 Czechoslovakia 1978
1 43 2157 Karel Gott Do Re Mi La / V Září ‎(7", RP) Supraphon 1 43 2157 Czechoslovakia 1978
1 43 2157 Karel Gott Do Re Mi La / V Září ‎(7", RP) Supraphon 1 43 2157 Czechoslovakia 1978

Video