randomtestreggaeband
» » Bill Wharton And The Ingredients - The Best Of The Sauce Boss
Bill Wharton And The Ingredients  - The Best Of The Sauce Boss album mp3

Bill Wharton And The Ingredients - The Best Of The Sauce Boss album mp3

  • Performer: Bill Wharton And The Ingredients
  • Genre: Blues
  • Title: The Best Of The Sauce Boss
  • MP3 version size: 1966 mb
  • FLAC version size: 1675 mb
  • Other: VOC AAC MMF ADX APE AHX WMA
  • Rating: 4.3
  • Votes: 196

Description

Download Bill 'Sauce Boss' Wharton and The Ingredients - (14 ) - 1991-2019, FLAC (image+.

Kenny 'Blues Boss' Wayne - Rollin' With The Blues Boss (2014). Kenny "Blues Boss" Wayne - Blues Boss Boogie (1999). Candye Kane - Home Cookin' (1994). Kenny 'Blues Boss' Wayne - An Old Rock On A Roll (2011).

Composer, Primary Artist. Bill Wharton & The Ingredients.

Bayou Tango Bill Wharton & The Ingredients. World Full Of Blues Bill Wharton And The Ingredient. Walkin' Blues Bill Wharton And The Ingredient. crux original mix primemusic. ru i t iso161975 3 iec mix sencho feat misho- prost turnt up in this club я буду с тобой f. pium project paul daniel best-muzon. ru wormhole remaster remaster dukes of dixieland intro introduzione da pinocchio original version 200 cliches soqquadro original version lites on, cincinnati incongruity remaster. remaster obsesion final extended vers you knowне трогать пишите могу поделиться для творчества black rebel motorcycle club feat

Florida Blues is a compilation of the best blues from Florida native, Bill Wharton, AKA The Sauce Boss over the last 20 years. His best work from 1989 through 2004, the disc is slide guitar blues. It features: Lucky Peterson, Kenny Neal, Pat Ramsey, Bob Greenlee, Tony Coleman, The Kingsnake Studio Band, and Wharton’s band, The Ingredients.

Sauce Boss" PERFORMER "Bill Wharton" INDEX 00 03:05:05 INDEX 01 03:06:72 TRACK 03 AUDIO TITLE "Alligator" PERFORMER "Bill Wharton" INDEX 00 07:02:67 INDEX 01 07:04:02 TRACK 04 AUDIO TITLE "The Lovin'est Man" PERFORMER "Bill Wharton" INDEX 00 10:11:02 INDEX 01 10:12:35 TRACK 05 AUDIO TITLE "Boogiewoogie Washerwoman" PERFORMER "Bill Wharton". INDEX 00 12:44:30 INDEX 01 12:45:32 TRACK 06 AUDIO TITLE "Great Big Fanny" PERFORMER "Bill Wharton" INDEX 00 15:49:15 INDEX 01 15:49:50 TRACK 07 AUDIO TITLE. Bill Wharton And The Ingredients - Cookin'.

Catch the Sauce Boss Sunday, January 14 at 2 pm from the pavilion at the Florida Keys Seafood Festival. er (as chronicled in Jimmy Buffett and the Coral Reefers’ 1999 hit I Will Play for Gumbo ) Bill Sauce Boss Wharton brings his Florida swamp-funk slide guitar blues, his gumbo, and his own hot sauce to every multi-sensory performance. His show includes a culinary demonstration with audience stirring and sampling the gumbo. Sauce Boss is a powerhouse of energy with his one-man band. The Filthy Six at Downtown GetDown with local blues legend Bill Wharton, The Sauce Boss! This Friday on Adams Street 6-10PM! FREE show for all ages, plus food trucks, a craft beer bar featuring local breweries, and the Kid Zone by BJ's Party House! Sauce Boss. November 14, 2017 ·. Borscht made with fire roasted potatoes, onions, and Parsnips.

Bill Wharton & the Ingredients- Cookin'- new cassette! . $. BILL WHARTON Cassette Tapes - THE SAUCE BOSS & COOKIN' - 2 Cassette Tapes . 9$. BILL WHARTON The Sauce Boss LP King Snake KS013 1989 NEW SEALED Blues 3. Bill Wharton~Bless The Children, Song To Set Us Free~Private Christian Gospel 1. 6$. Recipes CD NEW 1. Takara – Eternity – The Best 93-98 (2004). Bill Wharton And The Ingredients – Recipes 1999 →. Leave a Reply Cancel reply. This site uses Akismet to reduce spam.

Tracklist

1 Let the Big Dog Eat
2 Boogie Woogie Washer Woman
3 Mighty Crazy
4 Open Up
5 Jefferson County Hambone
6 Keep It In Your Song
7 Bayou Tango
8 Let Me Play With Your Poodle
9 Great Big Fanny
10 Paco's Garden
11 Havana Moon
12 Rosie
13 Sugar Bone
14 Uncle Willie